<?xml version="1.0" standalone="no"?>
<!DOCTYPE svg PUBLIC "-//W3C//DTD SVG 1.1//EN" "http://www.w3.org/Graphics/SVG/1.1/DTD/svg11.dtd" >
<svg xmlns="http://www.w3.org/2000/svg">
<metadata>Generated by IcoMoon</metadata>
<defs>
<font id="icomoon" horiz-adv-x="1024">
<font-face units-per-em="1024" ascent="960" descent="-64" />
<missing-glyph horiz-adv-x="1024" />
<glyph unicode="&#x20;" horiz-adv-x="512" d="" />
<glyph unicode="&#xe900;" glyph-name="phone-fill" d="M419.817 357.846c-76.913 76.913-94.28 153.826-98.198 184.641-1.095 8.521 1.837 17.066 7.933 23.119l62.242 62.214c9.156 9.15 10.781 23.411 3.918 34.386l-99.101 153.881c-7.592 12.153-23.183 16.54-35.998 10.128l-159.093-74.926c-10.363-5.103-16.46-16.115-15.283-27.606 8.336-79.191 42.86-273.862 234.172-465.186s385.956-225.834 465.19-234.17c11.492-1.177 22.503 4.919 27.607 15.283l74.927 159.091c6.387 12.788 2.030 28.336-10.072 35.942l-153.882 99.072c-10.969 6.87-25.229 5.257-34.386-3.89l-62.215-62.241c-6.053-6.096-14.598-9.028-23.119-7.933-30.816 3.918-107.729 21.285-184.643 98.197z" />
<glyph unicode="&#xe901;" glyph-name="linkedin" horiz-adv-x="878" d="M199.429 581.524v-566.286h-188.571v566.286h188.571zM211.429 756.381c0.571-54.286-40.571-97.714-106.286-97.714v0h-1.143c-63.429 0-104 43.429-104 97.714 0 55.429 42.286 97.714 106.286 97.714 64.571 0 104.571-42.286 105.143-97.714zM877.714 339.81v-324.571h-188v302.857c0 76-27.429 128-95.429 128-52 0-82.857-34.857-96.571-68.571-4.571-12.571-6.286-29.143-6.286-46.286v-316h-188c2.286 513.143 0 566.286 0 566.286h188v-82.286h-1.143c24.571 38.857 69.143 95.429 170.857 95.429 124 0 216.571-81.143 216.571-254.857z" />
<glyph unicode="&#xe902;" glyph-name="twitter" horiz-adv-x="951"  d="M389.2 48h70.6L305.6 224.2 487 464H345L233.7 318.6 106.5 464H35.8L200.7 275.5 26.8 48H172.4L272.9 180.9 389.2 48zM364.4 421.8h39.1L151.1 88h-42L364.4 421.8z"/>
<glyph unicode="&#xe903;" glyph-name="instagram" horiz-adv-x="878" d="M585.143 426.667c0 80.571-65.714 146.286-146.286 146.286s-146.286-65.714-146.286-146.286 65.714-146.286 146.286-146.286 146.286 65.714 146.286 146.286zM664 426.667c0-124.571-100.571-225.143-225.143-225.143s-225.143 100.571-225.143 225.143 100.571 225.143 225.143 225.143 225.143-100.571 225.143-225.143zM725.714 660.953c0-29.143-23.429-52.571-52.571-52.571s-52.571 23.429-52.571 52.571 23.429 52.571 52.571 52.571 52.571-23.429 52.571-52.571zM438.857 786.667c-64 0-201.143 5.143-258.857-17.714-20-8-34.857-17.714-50.286-33.143s-25.143-30.286-33.143-50.286c-22.857-57.714-17.714-194.857-17.714-258.857s-5.143-201.143 17.714-258.857c8-20 17.714-34.857 33.143-50.286s30.286-25.143 50.286-33.143c57.714-22.857 194.857-17.714 258.857-17.714s201.143-5.143 258.857 17.714c20 8 34.857 17.714 50.286 33.143s25.143 30.286 33.143 50.286c22.857 57.714 17.714 194.857 17.714 258.857s5.143 201.143-17.714 258.857c-8 20-17.714 34.857-33.143 50.286s-30.286 25.143-50.286 33.143c-57.714 22.857-194.857 17.714-258.857 17.714zM877.714 426.667c0-60.571 0.571-120.571-2.857-181.143-3.429-70.286-19.429-132.571-70.857-184s-113.714-67.429-184-70.857c-60.571-3.429-120.571-2.857-181.143-2.857s-120.571-0.571-181.143 2.857c-70.286 3.429-132.571 19.429-184 70.857s-67.429 113.714-70.857 184c-3.429 60.571-2.857 120.571-2.857 181.143s-0.571 120.571 2.857 181.143c3.429 70.286 19.429 132.571 70.857 184s113.714 67.429 184 70.857c60.571 3.429 120.571 2.857 181.143 2.857s120.571 0.571 181.143-2.857c70.286-3.429 132.571-19.429 184-70.857s67.429-113.714 70.857-184c3.429-60.571 2.857-120.571 2.857-181.143z" />
<glyph unicode="&#xe904;" glyph-name="facebook" horiz-adv-x="602" d="M548 931.81v-150.857h-89.714c-70.286 0-83.429-33.714-83.429-82.286v-108h167.429l-22.286-169.143h-145.143v-433.714h-174.857v433.714h-145.714v169.143h145.714v124.571c0 144.571 88.571 223.429 217.714 223.429 61.714 0 114.857-4.571 130.286-6.857z" />
<glyph unicode="&#xe905;" glyph-name="logo" horiz-adv-x="4725" d="M2276.517 827.005l746.144-475.212h1606.546v77.904h-1584.041l-769.515 489.927-753.934-492.524h-1495.75v-77.904h1519.121zM2276.517 723.134c-84.828 0-153.21-69.248-153.21-153.21 0-84.828 69.248-153.21 153.21-153.21 84.828 0 153.21 69.248 153.21 153.21 0.866 83.963-68.382 153.21-153.21 153.21zM145.42 129.335c-7.79 8.656-16.446 15.581-25.968 21.64s-18.178 12.118-25.968 18.178c-7.79 6.059-14.715 12.984-19.909 20.774s-7.79 18.178-7.79 30.296c0 12.118 3.462 22.505 10.387 31.161s15.581 13.85 26.833 13.85c20.774 0 35.489-13.85 42.414-42.414h5.194c2.597 11.253 4.328 19.909 6.059 26.833s3.462 14.715 5.194 22.505c-6.925 7.79-14.715 13.85-24.237 18.178s-20.774 6.059-33.758 6.059c-10.387 0-20.774-2.597-30.296-6.925s-18.178-11.253-25.102-20.774c-6.925-8.656-12.984-19.909-17.312-33.758-4.328-12.984-6.925-28.565-6.925-45.877 0-19.043 2.597-34.624 7.79-46.742s11.253-22.505 19.043-30.296c7.79-8.656 16.446-15.581 25.102-20.774 9.522-6.059 17.312-12.118 25.102-18.178s13.85-12.984 19.043-20.774c5.194-7.79 7.79-18.178 7.79-31.161 0-13.85-3.462-25.968-10.387-35.489-6.925-10.387-17.312-14.715-31.161-14.715-6.925 0-12.984 1.731-19.043 4.328s-10.387 6.925-14.715 11.253c-4.328 5.194-6.925 10.387-9.522 17.312-2.597 6.059-4.328 12.984-5.194 20.774h-5.194c-0.866-11.253-2.597-21.64-4.328-31.161s-3.462-19.909-6.059-32.027c5.194-5.194 12.984-10.387 22.505-13.85 10.387-3.462 21.64-6.059 33.758-6.059 13.85 0 26.833 2.597 38.086 7.79s21.64 12.984 29.43 22.505c7.79 9.522 14.715 21.64 19.043 35.489s6.925 28.565 6.925 45.877c0 19.043-2.597 34.624-7.79 46.742-5.194 11.253-11.253 21.64-19.043 29.43zM329.792 268.696c-5.194 6.925-12.984 11.253-22.505 14.715-9.522 4.328-22.505 6.059-38.952 6.059-8.656 0-17.312-0.866-25.968-0.866-8.656-0.866-17.312-0.866-25.968-0.866-6.059 0-11.253 0-15.581 0.866s-8.656 0.866-12.984 1.731c0.866-21.64 1.731-43.28 1.731-64.054 0.866-21.64 0.866-45.877 0.866-73.576v-67.516c0-27.699 0-51.936-0.866-73.576s-0.866-42.414-1.731-63.189c4.328 0.866 8.656 0.866 12.984 0.866s10.387 0 15.581 0c6.059 0 11.253 0 15.581 0s8.656 0 12.984-0.866c-0.866 24.237-1.731 48.473-2.597 73.576 0 25.102-0.866 49.339-0.866 74.441h18.178c12.984 0 25.102 1.731 36.355 6.059s20.774 10.387 28.565 18.178c7.79 8.656 14.715 19.043 19.043 32.893s6.925 29.43 6.925 48.473c0 14.715-1.731 27.699-5.194 38.086-2.597 10.387-7.79 19.909-15.581 28.565zM290.84 155.303c-3.462-9.522-7.79-17.312-12.984-22.505s-11.253-8.656-17.312-10.387c-6.059-1.731-12.118-2.597-18.178-2.597 0 23.371 0 45.877 0 69.248s0 46.742 0.866 70.113c0.866 0 1.731 0.866 3.462 0.866 0.866 0 2.597 0 3.462 0h7.79c5.194 0 9.522-0.866 14.715-3.462 4.328-2.597 8.656-6.059 12.118-11.253s6.059-12.118 7.79-20.774c1.731-8.656 2.597-19.043 2.597-32.027 0.866-14.715-0.866-27.699-4.328-37.221zM476.078 115.485c17.312 6.059 31.161 17.312 40.683 32.027 9.522 15.581 13.85 34.624 13.85 58.861 0 14.715-1.731 27.699-6.059 38.086s-9.522 19.909-16.446 26.833c-3.462 2.597-6.059 5.194-9.522 7.79-3.462 1.731-7.79 3.462-12.118 5.194s-10.387 2.597-16.446 2.597c-6.059 0.866-13.85 0.866-23.371 0.866-12.118 0-21.64-0.866-30.296-0.866-7.79-0.866-15.581-0.866-21.64-0.866s-11.253 0-15.581 0.866c-4.328 0.866-8.656 0.866-12.984 1.731 0.866-21.64 1.731-43.28 1.731-64.054 0.866-21.64 0.866-45.877 0.866-73.576v-67.516c0-27.699 0-51.936-0.866-73.576s-0.866-42.414-1.731-63.189c4.328 0.866 8.656 0.866 12.984 0.866s10.387 0 15.581 0c6.059 0 11.253 0 15.581 0s8.656 0 12.984-0.866c-0.866 20.774-1.731 41.549-2.597 63.189s-0.866 45.877-0.866 73.576v20.774h4.328l63.189-156.673c5.194 0.866 10.387 0.866 16.446 0.866 5.194 0 10.387 0 16.446 0 5.194 0 10.387 0 15.581 0s10.387 0 15.581-0.866c-12.984 27.699-25.968 55.398-38.952 83.097-12.984 28.565-25.102 56.264-36.355 84.828zM428.47 125.007c-0.866 0-2.597 0-3.462 0-1.731 0-2.597 0-4.328 0.866 0 45.011 0 90.022 0.866 135.033 9.522 0 18.178-0.866 25.102-1.731 6.925-1.731 12.984-4.328 17.312-8.656s7.79-11.253 9.522-19.909c1.731-8.656 3.462-19.909 3.462-34.624 0-24.237-4.328-41.549-12.118-53.667-8.656-11.253-20.774-17.312-36.355-17.312zM626.691 224.55c0.866 21.64 0.866 42.414 2.597 64.054-4.328-0.866-8.656-0.866-12.984-1.731s-10.387-0.866-15.581-0.866c-6.059 0-11.253 0-15.581 0.866s-8.656 0.866-12.984 1.731c0.866-21.64 1.731-43.28 1.731-64.054 0.866-21.64 0.866-45.877 0.866-73.576v-67.516c0-27.699 0-51.936-0.866-73.576s-0.866-42.414-1.731-63.189c4.328 0.866 8.656 0.866 12.984 0.866s10.387 0 15.581 0c6.059 0 11.253 0 15.581 0s8.656 0 12.984-0.866c-0.866 20.774-1.731 41.549-2.597 63.189s-0.866 45.877-0.866 73.576v67.516c0 28.565 0 52.801 0.866 73.576zM841.359 289.47c0.866-3.462 0.866-9.522 0.866-19.043s0.866-20.774 0.866-34.624c0-12.984 0-27.699 0-43.28s0-32.027 0-47.608v-91.753c-25.968 39.817-51.936 79.635-77.038 118.587s-50.205 77.904-76.172 118.587c-6.925-1.731-12.118-2.597-15.581-2.597-4.328 0-9.522 0.866-15.581 2.597 0-12.118 0.866-25.968 0.866-41.549 0.866-15.581 0.866-34.624 0.866-57.995 0-25.102 0-51.070-0.866-78.769s-1.731-52.801-1.731-76.172c-0.866-23.371-1.731-43.28-2.597-59.726s-1.731-25.968-1.731-28.565c5.194 0.866 10.387 0.866 16.446 0.866 2.597 0 5.194 0 7.79 0s6.059 0 8.656-0.866c0 3.462-0.866 8.656-0.866 14.715s-0.866 13.85-0.866 23.371c0 9.522 0 21.64-0.866 35.489 0 13.85 0 31.161 0 51.070v57.995c0 9.522 0 19.909 0 29.43s0 19.043 0.866 28.565c54.533-80.5 105.603-160.135 154.076-239.77 4.328 0.866 8.656 0.866 13.85 0.866s9.522 0 14.715-0.866v59.726c0 24.237 0 45.877 0 67.516 0 20.774 0 42.414 0.866 64.054 0 21.64 0.866 44.145 1.731 68.382s1.731 51.936 2.597 81.366c-6.925-1.731-12.118-2.597-15.581-2.597s-8.656 0.866-15.581 2.597zM1091.516 97.308c-6.925 0-12.984 0-16.446 0.866s-6.925 0.866-9.522 1.731c0-4.328 0.866-12.984 1.731-25.968s0.866-32.893 0.866-59.726c0-6.925 0-13.85 0-19.909s0-11.253-0.866-14.715c-1.731-1.731-3.462-2.597-6.925-3.462s-6.059-1.731-10.387-2.597c-3.462-0.866-7.79-0.866-11.253-1.731s-6.925-0.866-10.387-0.866c-13.85 0-25.968 3.462-36.355 10.387s-19.043 16.446-26.833 29.43c-6.925 12.118-12.984 26.833-16.446 44.145s-6.059 35.489-6.059 55.398c0 25.968 2.597 49.339 7.79 68.382s12.118 35.489 19.909 48.473c8.656 12.984 18.178 22.505 28.565 29.43 10.387 6.059 21.64 9.522 32.027 9.522 16.446 0 30.296-4.328 41.549-13.85s20.774-20.774 28.565-36.355h5.194c0.866 8.656 2.597 17.312 4.328 25.102 1.731 8.656 3.462 16.446 5.194 25.102-12.984 9.522-25.968 17.312-38.952 21.64-12.984 5.194-28.565 7.79-46.742 7.79-20.774 0-39.817-4.328-57.995-12.118s-33.758-19.909-46.742-35.489c-12.984-15.581-23.371-35.489-30.296-58.861-7.79-23.371-11.253-51.070-11.253-83.097 0-25.102 3.462-48.473 10.387-69.248s16.446-38.086 28.565-51.936c12.118-14.715 26.833-25.102 44.145-32.893s35.489-11.253 56.264-11.253c15.581 0 31.161 1.731 46.742 5.194s31.161 8.656 46.742 14.715c-0.866 2.597-0.866 7.79-0.866 15.581 0 6.925 0 14.715 0 23.371v16.446c0 7.79 0 16.446 0 25.102s0 17.312 0.866 25.102c0 7.79 0.866 14.715 0.866 20.774s0.866 10.387 0.866 12.984c-2.597-0.866-5.194-0.866-9.522-1.731-2.597-0.866-8.656-0.866-17.312-0.866zM1354.658 225.416c0.866 21.64 0.866 42.414 2.597 64.054-4.328-0.866-8.656-0.866-12.984-1.731s-10.387-0.866-15.581-0.866c-6.059 0-11.253 0-15.581 0.866s-8.656 0.866-12.984 1.731c0.866-21.64 1.731-42.414 1.731-64.054 0.866-20.774 0.866-45.011 0.866-72.71-6.925 0-13.85-0.866-22.505-0.866-7.79 0-18.178 0-31.161 0s-23.371 0-32.027 0c-8.656 0-15.581 0.866-21.64 0.866 0 27.699 0 51.936 0.866 72.71 0 20.774 0.866 42.414 2.597 64.054-4.328-0.866-8.656-0.866-12.984-1.731s-10.387-0.866-15.581-0.866c-6.059 0-11.253 0-15.581 0.866s-8.656 0.866-12.984 1.731c0.866-21.64 1.731-43.28 1.731-64.054 0.866-21.64 0.866-45.877 0.866-73.576v-67.516c0-27.699 0-51.936-0.866-73.576s-0.866-42.414-1.731-63.189c4.328 0.866 8.656 0.866 12.984 0.866s10.387 0 15.581 0c6.059 0 11.253 0 15.581 0s8.656 0 12.984-0.866c-0.866 20.774-1.731 41.549-2.597 63.189s-0.866 45.877-0.866 73.576v28.565c8.656 0.866 18.178 0.866 26.833 1.731 8.656 0 18.178 0.866 26.833 0.866s18.178 0 26.833-0.866c8.656-0.866 18.178-0.866 26.833-1.731v-28.565c0-27.699 0-51.936-0.866-73.576s-0.866-42.414-1.731-63.189c4.328 0.866 8.656 0.866 12.984 0.866s10.387 0 15.581 0c6.059 0 11.253 0 15.581 0s8.656 0 12.984-0.866c-0.866 20.774-1.731 41.549-2.597 63.189s-0.866 45.877-0.866 73.576v67.516c0 27.699 0 51.936 0.866 73.576zM1448.142 224.55c0.866 21.64 0.866 42.414 2.597 64.054-4.328-0.866-8.656-0.866-12.984-1.731s-10.387-0.866-15.581-0.866c-6.059 0-11.253 0-15.581 0.866s-8.656 0.866-12.984 1.731c0.866-21.64 1.731-43.28 1.731-64.054 0.866-21.64 0.866-45.877 0.866-73.576v-67.516c0-27.699 0-51.936-0.866-73.576s-0.866-42.414-1.731-63.189c4.328 0.866 8.656 0.866 12.984 0.866s10.387 0 15.581 0c6.059 0 11.253 0 15.581 0s8.656 0 12.984-0.866c-0.866 20.774-1.731 41.549-2.597 63.189s-0.866 45.877-0.866 73.576v67.516c0 28.565 0 52.801 0.866 73.576zM1621.261-10.026c-13.85-2.597-26.833-4.328-40.683-5.194s-26.833-1.731-39.817-1.731c0 12.984 0 28.565-0.866 45.877 0 17.312 0 35.489 0 54.533v67.516c0 27.699 0 51.936 0.866 73.576s0.866 42.414 2.597 64.054c-4.328-0.866-8.656-0.866-12.984-1.731s-10.387-0.866-15.581-0.866c-6.059 0-11.253 0-15.581 0.866s-8.656 0.866-12.984 1.731c0.866-21.64 1.731-43.28 1.731-64.054 0.866-21.64 0.866-45.877 0.866-73.576v-67.516c0-27.699 0-51.936-0.866-73.576s-0.866-42.414-1.731-63.189c1.731 0 4.328 0.866 6.925 0.866s6.925 0 12.118 0c5.194 0 12.118 0 20.774 0s20.774 0 34.624 0c16.446 0 28.565 0 38.086 0s17.312-0.866 23.371-0.866c-0.866 1.731-0.866 4.328-0.866 7.79 0 2.597 0 6.925 0 12.118s0 9.522 0 12.118c-0.866 4.328 0 7.79 0 11.253zM1787.456-10.026c-13.85-2.597-26.833-4.328-40.683-5.194-12.984-0.866-26.833-1.731-39.817-1.731 0 12.984 0 28.565-0.866 45.877 0 17.312 0 35.489 0 54.533v67.516c0 27.699 0 51.936 0.866 73.576s0.866 42.414 2.597 64.054c-4.328-0.866-8.656-0.866-12.984-1.731s-10.387-0.866-15.581-0.866c-6.059 0-11.253 0-15.581 0.866s-9.522 0.866-12.984 1.731c0.866-21.64 1.731-43.28 1.731-64.054 0.866-21.64 0.866-45.877 0.866-73.576v-67.516c0-27.699 0-51.936-0.866-73.576s-0.866-42.414-1.731-63.189c1.731 0 4.328 0.866 6.925 0.866s6.925 0 12.118 0c5.194 0 12.118 0 20.774 0s20.774 0 34.624 0c16.446 0 28.565 0 38.086 0s17.312-0.866 23.371-0.866c-0.866 1.731-0.866 4.328-0.866 7.79 0 2.597 0 6.925 0 12.118s0 9.522 0 12.118c-0.866 4.328-0.866 7.79 0 11.253zM2203.807 101.636c-2.597 31.161-5.194 63.189-7.79 96.081s-5.194 63.189-7.79 91.753c-6.059-1.731-10.387-2.597-14.715-2.597s-9.522 0.866-15.581 2.597c-12.984-39.817-25.968-80.5-39.817-121.183s-27.699-79.635-42.414-116.855c-6.059 17.312-12.984 36.355-19.909 55.398-6.925 19.909-13.85 39.817-20.774 59.726-6.925 20.774-13.85 40.683-20.774 61.457s-13.85 40.683-19.909 60.592c-2.597-0.866-5.194-0.866-7.79-1.731s-4.328-0.866-6.925-0.866c-2.597 0-5.194 0-6.925 0.866-2.597 0.866-4.328 0.866-6.925 1.731-5.194-57.995-10.387-115.124-16.446-171.388s-12.984-112.527-19.909-169.657c2.597 0.866 5.194 0.866 8.656 0.866 2.597 0 5.194 0 8.656 0 2.597 0 5.194 0 7.79 0s6.059 0 8.656-0.866c1.731 37.221 3.462 74.441 6.059 111.662 1.731 37.221 4.328 74.441 8.656 112.527h0.866c12.984-38.086 25.968-75.307 38.952-112.527s25.102-74.441 38.086-111.662c0.866 0 2.597 0.866 3.462 0.866s1.731 0 3.462 0c0.866 0 2.597 0 3.462 0s2.597-0.866 3.462-0.866c12.984 38.086 25.102 76.172 38.086 113.393 12.984 38.086 25.968 76.172 39.817 115.124h0.866c2.597-38.952 5.194-78.769 8.656-118.587 2.597-39.817 4.328-77.038 6.059-110.796 5.194 0.866 9.522 0.866 14.715 0.866s9.522 0 14.715 0c4.328 0 9.522 0 13.85 0 5.194 0 9.522 0 14.715-0.866-1.731 16.446-4.328 38.086-6.925 65.785-5.194 28.565-7.79 57.129-10.387 89.156zM2381.254-10.026c-13.85-2.597-26.833-4.328-40.683-5.194-12.984-0.866-26.833-1.731-39.817-1.731-0.866 19.909-0.866 40.683-0.866 62.323 0 10.387 0 20.774 0 32.027 0 10.387 0 20.774 0 32.027 26.833 0 53.667-1.731 79.635-4.328-0.866 5.194-0.866 9.522-0.866 12.118s-0.866 5.194-0.866 8.656c0 3.462 0 6.059 0 9.522 0 2.597 0.866 6.925 1.731 12.984-12.984-0.866-25.968-1.731-38.952-2.597-12.118-0.866-25.968-0.866-41.549-1.731 0 18.178 0 36.355 0 54.533s0.866 36.355 1.731 54.533c2.597 0 6.925 0 12.984-0.866 6.059 0 12.984-0.866 20.774-1.731s15.581-1.731 23.371-1.731c7.79-0.866 15.581-1.731 22.505-1.731-0.866 3.462-0.866 6.925-0.866 9.522s0 6.925 0 12.118c0 8.656 0.866 15.581 1.731 20.774-4.328-0.866-13.85-0.866-27.699-1.731s-28.565-0.866-46.742-0.866c-10.387 0-20.774 0-31.161 0.866s-20.774 0.866-31.161 1.731c0.866-21.64 1.731-43.28 1.731-64.054 0.866-21.64 0.866-45.877 0.866-73.576v-67.516c0-27.699 0-51.936-0.866-73.576s-0.866-42.414-1.731-63.189c1.731 0 4.328 0.866 6.925 0.866s6.925 0 12.118 0c5.194 0 12.118 0 20.774 0s20.774 0 34.624 0c16.446 0 28.565 0 38.086 0s17.312-0.866 23.371-0.866c-0.866 1.731-0.866 4.328-0.866 7.79 0 2.597 0 6.925 0 12.118s0 9.522 0 12.118c0.866 3.462 0.866 6.925 1.731 10.387zM2602.847 255.712c-12.118 12.118-25.968 20.774-43.28 25.968-16.446 5.194-34.624 7.79-55.398 7.79-15.581 0-27.699-0.866-38.086-0.866-9.522-0.866-18.178-0.866-25.968-0.866-6.059 0-11.253 0-15.581 0.866s-8.656 0.866-12.984 1.731c0.866-21.64 1.731-43.28 1.731-64.054 0.866-21.64 0.866-45.877 0.866-73.576v-67.516c0-27.699 0-51.936-0.866-73.576s-0.866-42.414-1.731-63.189c4.328 0.866 8.656 0.866 12.984 0.866s10.387 0 15.581 0c9.522 0 19.909 0 32.893-0.866 12.118 0 27.699-0.866 45.011-0.866 16.446 0 32.027 4.328 46.742 12.118 14.715 8.656 27.699 19.909 38.952 36.355 11.253 15.581 19.909 34.624 26.833 57.129 6.059 22.505 9.522 46.742 9.522 74.441 0 31.161-3.462 57.129-9.522 77.904-6.925 21.64-16.446 38.086-27.699 50.205zM2561.298 13.345c-15.581-25.102-36.355-38.086-63.189-38.086-6.925 0-13.85 0-18.178 0.866-5.194 0-9.522 0.866-12.984 0.866 0 2.597 0 7.79 0 15.581s0 16.446 0 25.968v197.356c0 9.522 0 19.043 0 26.833s0 12.984 0 15.581c5.194 0.866 10.387 0.866 16.446 1.731 5.194 0.866 12.118 0.866 20.774 0.866 12.118 0 23.371-3.462 32.893-9.522s18.178-14.715 25.102-25.968c6.925-11.253 12.984-25.102 16.446-41.549s6.059-34.624 6.059-55.398c0-51.070-7.79-90.022-23.371-115.124zM2722.299 224.55c0.866 21.64 0.866 42.414 2.597 64.054-4.328-0.866-8.656-0.866-12.984-1.731s-10.387-0.866-15.581-0.866c-6.059 0-11.253 0-15.581 0.866s-8.656 0.866-12.984 1.731c0.866-21.64 1.731-43.28 1.731-64.054 0.866-21.64 0.866-45.877 0.866-73.576v-67.516c0-27.699 0-51.936-0.866-73.576s-0.866-42.414-1.731-63.189c4.328 0.866 8.656 0.866 12.984 0.866s10.387 0 15.581 0c6.059 0 11.253 0 15.581 0s9.522 0 12.984-0.866c-0.866 20.774-1.731 41.549-2.597 63.189s-0.866 45.877-0.866 73.576v67.516c0 28.565 0 52.801 0.866 73.576zM2820.112 228.878c7.79 12.118 16.446 21.64 25.968 27.699s19.043 8.656 28.565 8.656c12.984 0 23.371-3.462 32.893-10.387s18.178-18.178 27.699-33.758h5.194c0.866 8.656 1.731 17.312 2.597 25.968s3.462 16.446 5.194 25.102c-4.328 3.462-8.656 6.059-14.715 9.522-6.059 2.597-12.118 5.194-18.178 7.79-6.059 1.731-12.984 4.328-19.909 5.194-6.925 1.731-12.984 1.731-19.043 1.731-18.178 0-36.355-3.462-53.667-10.387s-32.027-18.178-45.011-32.893c-12.984-14.715-23.371-34.624-31.161-58.861s-11.253-53.667-11.253-87.425c0-23.371 2.597-45.011 8.656-65.785 6.059-19.909 14.715-38.086 25.968-52.801s25.102-25.968 40.683-34.624c16.446-7.79 34.624-12.118 54.533-12.118 28.565 0 52.801 6.925 71.844 19.909 0.866 6.925 1.731 13.85 2.597 20.774 1.731 6.925 2.597 13.85 5.194 20.774l-4.328 4.328c-3.462-6.059-7.79-10.387-12.984-15.581-5.194-4.328-10.387-8.656-16.446-12.118s-11.253-6.059-17.312-7.79c-6.059-1.731-11.253-2.597-17.312-2.597-10.387 0-19.909 2.597-30.296 7.79s-19.043 13.85-26.833 25.102c-7.79 11.253-13.85 25.968-19.043 44.145s-7.79 39.817-7.79 65.785c0 26.833 2.597 49.339 6.925 68.382 6.925 20.774 12.984 36.355 20.774 48.473zM3135.189 106.829c-8.656 31.161-17.312 62.323-25.968 94.35s-16.446 62.323-24.237 90.888c-2.597-0.866-4.328-1.731-6.925-1.731-1.731-0.866-4.328-0.866-6.925-0.866s-4.328 0-6.925 0.866c-1.731 0.866-4.328 0.866-6.925 1.731-5.194-19.043-11.253-38.952-17.312-61.457-6.059-21.64-12.984-44.145-19.043-66.651s-12.984-45.011-19.043-66.651c-6.059-21.64-12.118-42.414-18.178-62.323-6.059-19.043-11.253-36.355-15.581-51.936s-8.656-26.833-11.253-35.489c3.462 0.866 6.059 0.866 9.522 0.866 2.597 0 6.059 0 8.656 0s5.194 0 8.656 0c2.597 0 5.194 0 8.656-0.866 3.462 16.446 6.925 32.893 11.253 49.339 4.328 17.312 8.656 33.758 12.984 51.070 6.059 0 12.118 0.866 18.178 0.866s12.118 0 18.178 0c7.79 0 14.715 0 22.505 0s14.715 0 22.505-0.866c4.328-17.312 8.656-33.758 12.984-51.070s7.79-33.758 11.253-49.339c5.194 0.866 9.522 0.866 14.715 0.866s10.387 0 14.715 0c5.194 0 9.522 0 14.715 0s10.387 0 16.446-0.866c-6.925 19.043-14.715 42.414-22.505 70.979-8.656 27.699-16.446 57.129-25.102 88.291zM3025.258 77.399c5.194 19.909 10.387 39.817 15.581 59.726 5.194 19.043 11.253 38.952 17.312 58.861 6.059-19.909 11.253-39.817 16.446-58.861s10.387-38.952 15.581-59.726h-64.92zM3340.335-10.026c-13.85-2.597-26.833-4.328-40.683-5.194-12.984-0.866-26.833-1.731-39.817-1.731 0 12.984 0 28.565-0.866 45.877 0 17.312 0 35.489 0 54.533v67.516c0 27.699 0 51.936 0.866 73.576s0.866 42.414 2.597 64.054c-4.328-0.866-8.656-0.866-12.984-1.731s-10.387-0.866-15.581-0.866c-6.059 0-11.253 0-15.581 0.866s-8.656 0.866-12.984 1.731c0.866-21.64 1.731-43.28 1.731-64.054 0.866-21.64 0.866-45.877 0.866-73.576v-67.516c0-27.699 0-51.936-0.866-73.576s-0.866-42.414-1.731-63.189c1.731 0 4.328 0.866 6.925 0.866s6.925 0 12.118 0c5.194 0 12.118 0 20.774 0s20.774 0 34.624 0c16.446 0 28.565 0 38.086 0s17.312-0.866 23.371-0.866c-0.866 1.731-0.866 4.328-0.866 7.79 0 2.597 0 6.925 0 12.118s0 9.522 0 12.118c-0.866 4.328 0 7.79 0 11.253zM3522.11 228.878c7.79 12.118 16.446 21.64 25.968 27.699s19.043 8.656 28.565 8.656c12.984 0 23.371-3.462 32.893-10.387s19.043-18.178 27.699-33.758h5.194c0.866 8.656 1.731 17.312 2.597 25.968s3.462 16.446 5.194 25.102c-4.328 3.462-8.656 6.059-14.715 9.522-6.059 2.597-12.118 5.194-18.178 7.79-6.059 1.731-12.984 4.328-19.909 5.194-6.925 1.731-12.984 1.731-19.043 1.731-18.178 0-36.355-3.462-53.667-10.387s-32.027-18.178-45.011-32.893c-12.984-14.715-23.371-34.624-31.161-58.861s-11.253-53.667-11.253-87.425c0-23.371 2.597-45.011 8.656-65.785 6.059-19.909 14.715-38.086 25.968-52.801s25.102-25.968 40.683-34.624c16.446-7.79 34.624-12.118 54.533-12.118 28.565 0 52.801 6.925 71.844 19.909 0.866 6.925 1.731 13.85 2.597 20.774 1.731 6.925 3.462 13.85 5.194 20.774l-4.328 4.328c-3.462-6.059-7.79-10.387-12.984-15.581-5.194-4.328-10.387-8.656-16.446-12.118s-11.253-6.059-17.312-7.79c-6.059-1.731-11.253-2.597-17.312-2.597-10.387 0-19.909 2.597-30.296 7.79s-19.043 13.85-26.833 25.102c-7.79 11.253-14.715 25.968-19.043 44.145-5.194 18.178-7.79 39.817-7.79 65.785 0 26.833 2.597 49.339 6.925 68.382 6.059 20.774 12.984 36.355 20.774 48.473zM3812.085-10.026c-13.85-2.597-26.833-4.328-40.683-5.194s-26.833-1.731-40.683-1.731c-0.866 19.909-0.866 40.683-0.866 62.323 0 10.387 0 20.774 0 32.027 0 10.387 0 20.774 0 32.027 26.833 0 53.667-1.731 79.635-4.328-0.866 5.194-0.866 9.522-0.866 12.118s-0.866 5.194-0.866 8.656c0 3.462 0 6.059 0 9.522 0 2.597 0.866 6.925 1.731 12.984-13.85-0.866-25.968-1.731-38.952-2.597-12.118-0.866-25.968-0.866-41.549-1.731 0 18.178 0 36.355 0 54.533s0.866 36.355 1.731 54.533c2.597 0 6.925 0 12.984-0.866 6.059 0 12.984-0.866 20.774-1.731s15.581-1.731 23.371-1.731c7.79-0.866 15.581-1.731 22.505-1.731-0.866 3.462-0.866 6.925-0.866 9.522s0 6.925 0 12.118c0 8.656 0.866 15.581 1.731 20.774-4.328-0.866-13.85-0.866-27.699-1.731s-29.43-0.866-46.742-0.866c-10.387 0-20.774 0-31.161 0.866s-20.774 0.866-31.161 1.731c0.866-21.64 1.731-43.28 1.731-64.054 0.866-21.64 0.866-45.877 0.866-73.576v-67.516c0-27.699 0-51.936-0.866-73.576s-0.866-42.414-1.731-63.189c1.731 0 4.328 0.866 6.925 0.866s6.925 0 12.118 0c5.194 0 12.118 0 20.774 0s20.774 0 34.624 0c16.446 0 28.565 0 38.086 0s17.312-0.866 23.371-0.866c-0.866 1.731-0.866 4.328-0.866 7.79 0 2.597 0 6.925 0 12.118s0 9.522 0 12.118c1.731 3.462 2.597 6.925 2.597 10.387zM4029.349 289.47c0.866-3.462 0.866-9.522 0.866-19.043s0.866-20.774 0.866-34.624c0-12.984 0-27.699 0-43.28s0-32.027 0-47.608v-91.753c-25.968 39.817-51.936 79.635-77.038 118.587s-50.205 77.904-76.172 118.587c-6.925-1.731-12.118-2.597-15.581-2.597-4.328 0-9.522 0.866-15.581 2.597 0-12.118 0.866-25.968 0.866-41.549 0.866-15.581 0.866-34.624 0.866-57.995 0-25.102 0-51.070-0.866-78.769s-0.866-52.801-1.731-76.172c-0.866-23.371-1.731-43.28-2.597-59.726s-0.866-25.968-1.731-28.565c5.194 0.866 11.253 0.866 16.446 0.866 2.597 0 5.194 0 7.79 0s5.194 0 8.656-0.866c0 3.462-0.866 8.656-0.866 14.715s-0.866 13.85-0.866 23.371c0 9.522 0 21.64-0.866 35.489 0 13.85 0 31.161 0 51.070v57.995c0 9.522 0 19.909 0 29.43s0 19.043 0.866 28.565c54.533-80.5 105.603-160.135 154.076-239.77 4.328 0.866 8.656 0.866 13.85 0.866s9.522 0 14.715-0.866v59.726c0 24.237 0 45.877 0 67.516 0 20.774 0 42.414 0.866 64.054 0 21.64 0.866 44.145 1.731 68.382s1.731 51.936 2.597 81.366c-6.925-1.731-12.118-2.597-15.581-2.597s-8.656 0.866-15.581 2.597zM4265.657 289.47c-6.925 0-13.85-0.866-19.909-0.866s-12.984-0.866-19.043-0.866c-6.925 0-13.85 0-21.64-0.866-7.79 0-17.312 0-28.565 0s-20.774 0-28.565 0c-7.79 0-15.581 0-21.64 0.866-6.925 0-12.984 0-19.909 0.866-6.059 0-13.85 0.866-21.64 0.866 0.866-3.462 0.866-6.925 0.866-11.253 0-3.462 0.866-6.925 0.866-11.253 0-3.462 0-6.925-0.866-11.253 0-3.462-0.866-6.925-0.866-11.253 5.194 0.866 10.387 1.731 17.312 2.597 6.059 0.866 12.118 1.731 18.178 1.731 6.059 0.866 11.253 0.866 16.446 0.866s9.522 0.866 12.984 0.866c0.866-3.462 0.866-9.522 0.866-17.312s0-16.446 0-25.968v-123.78c0-27.699 0-51.936-0.866-73.576s-0.866-42.414-1.731-63.189c4.328 0.866 8.656 0.866 12.984 0.866s10.387 0 15.581 0c6.059 0 11.253 0 15.581 0s9.522 0 12.984-0.866c-0.866 20.774-1.731 41.549-2.597 63.189s-0.866 45.877-0.866 73.576v150.614c0 4.328 0 7.79 0 10.387s0 5.194 0.866 6.925c3.462 0 7.79 0 12.984-0.866 5.194 0 10.387-0.866 16.446-0.866 6.059-0.866 11.253-0.866 17.312-1.731s11.253-1.731 15.581-2.597c-0.866 3.462-0.866 6.925-0.866 11.253 0 3.462-0.866 6.925-0.866 11.253 0 3.462 0 6.925 0.866 11.253 0 2.597 0.866 6.925 1.731 10.387zM4424.061-10.026c-13.85-2.597-26.833-4.328-40.683-5.194-12.984-0.866-26.833-1.731-39.817-1.731-0.866 19.909-0.866 40.683-0.866 62.323 0 10.387 0 20.774 0 32.027 0 10.387 0 20.774 0 32.027 26.833 0 53.667-1.731 79.635-4.328-0.866 5.194-0.866 9.522-0.866 12.118s-0.866 5.194-0.866 8.656c0 3.462 0 6.059 0 9.522 0 2.597 0.866 6.925 1.731 12.984-12.984-0.866-25.968-1.731-38.952-2.597-12.118-0.866-25.968-0.866-41.549-1.731 0 18.178 0 36.355 0 54.533s0.866 36.355 1.731 54.533c2.597 0 6.925 0 12.984-0.866 6.059 0 12.984-0.866 20.774-1.731s15.581-1.731 23.371-1.731c7.79-0.866 15.581-1.731 22.505-1.731-0.866 3.462-0.866 6.925-0.866 9.522s0 6.925 0 12.118c0 8.656 0.866 15.581 1.731 20.774-4.328-0.866-13.85-0.866-27.699-1.731s-28.565-0.866-46.742-0.866c-10.387 0-20.774 0-31.161 0.866s-20.774 0.866-31.161 1.731c0.866-21.64 1.731-43.28 1.731-64.054 0-21.64 0.866-45.877 0.866-73.576v-67.516c0-27.699 0-51.936-0.866-73.576s-0.866-42.414-1.731-63.189c1.731 0 4.328 0.866 6.925 0.866s6.925 0 12.118 0 12.118 0 20.774 0c8.656 0 20.774 0 34.624 0 16.446 0 28.565 0 38.086 0s17.312-0.866 23.371-0.866c-0.866 1.731-0.866 4.328-0.866 7.79 0 2.597 0 6.925 0 12.118s0 9.522 0 12.118c0.866 3.462 1.731 6.925 1.731 10.387zM4592.852 31.522c-12.984 27.699-25.102 56.264-36.355 83.963 17.312 6.059 31.161 17.312 40.683 32.027 9.522 15.581 13.85 34.624 13.85 58.861 0 14.715-1.731 27.699-6.059 38.086s-9.522 19.909-16.446 26.833c-3.462 2.597-6.059 5.194-9.522 7.79-3.462 1.731-7.79 3.462-12.118 5.194s-10.387 2.597-16.446 2.597c-6.059 0.866-13.85 0.866-23.371 0.866-12.118 0-21.64-0.866-30.296-0.866-7.79-0.866-15.581-0.866-21.64-0.866s-11.253 0-15.581 0.866c-4.328 0.866-8.656 0.866-12.984 1.731 0.866-21.64 1.731-43.28 1.731-64.054 0.866-21.64 0.866-45.877 0.866-73.576v-67.516c0-27.699 0-51.936-0.866-73.576s-0.866-42.414-1.731-63.189c4.328 0.866 8.656 0.866 12.984 0.866s10.387 0 15.581 0c6.059 0 11.253 0 15.581 0s9.522 0 12.984-0.866c-0.866 20.774-1.731 41.549-2.597 63.189s-0.866 45.877-0.866 73.576v20.774h3.462l63.189-156.673c5.194 0.866 10.387 0.866 16.446 0.866 5.194 0 10.387 0 15.581 0s10.387 0 15.581 0c5.194 0 10.387 0 15.581-0.866-12.118 27.699-25.102 55.398-37.221 83.963zM4508.889 125.007c-0.866 0-2.597 0-3.462 0-1.731 0-2.597 0-4.328 0.866 0 45.011 0 90.022 0.866 135.033 9.522 0 18.178-0.866 25.102-1.731 6.925-1.731 12.984-4.328 17.312-8.656s7.79-11.253 9.522-19.909c1.731-8.656 3.462-19.909 3.462-34.624 0-24.237-4.328-41.549-12.118-53.667-8.656-11.253-20.774-17.312-36.355-17.312z" />
<glyph unicode="&#xe906;" glyph-name="dots" d="M512.051 539.307c-62.208 0-112.691-50.432-112.691-112.64s50.483-112.64 112.691-112.64c62.208 0 112.589 50.432 112.589 112.64s-50.381 112.64-112.589 112.64zM153.651 539.307c-62.208 0-112.691-50.432-112.691-112.64s50.483-112.64 112.691-112.64c62.208 0 112.589 50.483 112.589 112.64s-50.381 112.64-112.589 112.64zM870.451 539.307c-62.208 0-112.691-50.432-112.691-112.64s50.483-112.64 112.691-112.64c62.208 0 112.589 50.432 112.589 112.64s-50.381 112.64-112.589 112.64z" />
<glyph unicode="&#xe907;" glyph-name="alert-triangle" d="M512 256c-25.6 0-42.667 17.067-42.667 42.667s17.067 42.667 42.667 42.667 42.667-17.067 42.667-42.667v0c0-25.6-17.067-42.667-42.667-42.667zM512 426.667c-25.6 0-42.667 17.067-42.667 42.667v85.333c0 25.6 17.067 42.667 42.667 42.667s42.667-17.067 42.667-42.667v-85.333c0-25.6-17.067-42.667-42.667-42.667zM213.333 85.334c0 0 0 0 0 0-17.067 0-29.867 4.267-42.667 8.533-29.867 12.8-55.467 38.4-68.267 68.267s-12.8 68.267 0 98.133c0 0 0 4.267 4.267 4.267l298.667 524.8c12.8 21.333 29.867 38.4 51.2 51.2 59.733 34.133 140.8 12.8 174.933-51.2l298.667-520.533c0 0 0-4.267 4.267-4.267 4.267-12.8 8.533-25.6 8.533-42.667 0-34.133-8.533-68.267-34.133-93.867-21.333-25.6-55.467-38.4-89.6-42.667h-605.867c0 0 0 0 0 0zM179.2 226.134c-4.267-8.533-4.267-21.333 0-29.867s12.8-17.067 21.333-21.333c4.267-4.267 8.533-4.267 12.8-4.267 0 0 0 0 0 0h597.333c8.533 0 21.333 4.267 25.6 12.8s12.8 21.333 12.8 29.867c0 4.267 0 8.533-4.267 12.8l-298.667 520.533c-8.533 21.333-34.133 29.867-55.467 17.067-8.533-4.267-12.8-8.533-17.067-17.067l-294.4-520.533z" />
<glyph unicode="&#xe908;" glyph-name="alert-circle" d="M512-0c-234.667 0-426.667 192-426.667 426.667s192 426.667 426.667 426.667c234.667 0 426.667-192 426.667-426.667s-192-426.667-426.667-426.667zM512 768c-187.733 0-341.333-153.6-341.333-341.333s153.6-341.333 341.333-341.333 341.333 153.6 341.333 341.333-153.6 341.333-341.333 341.333zM512 384c-25.6 0-42.667 17.067-42.667 42.667v170.667c0 25.6 17.067 42.667 42.667 42.667s42.667-17.067 42.667-42.667v-170.667c0-25.6-17.067-42.667-42.667-42.667zM512 213.334c-25.6 0-42.667 17.067-42.667 42.667s17.067 42.667 42.667 42.667v0c25.6 0 42.667-17.067 42.667-42.667s-17.067-42.667-42.667-42.667z" />
<glyph unicode="&#xe909;" glyph-name="alert-help" d="M512-0c-234.667 0-426.667 192-426.667 426.667s192 426.667 426.667 426.667c234.667 0 426.667-192 426.667-426.667s-192-426.667-426.667-426.667zM512 768c-187.733 0-341.333-153.6-341.333-341.333s153.6-341.333 341.333-341.333 341.333 153.6 341.333 341.333-153.6 341.333-341.333 341.333zM512 170.667c-25.6 0-42.667 17.067-42.667 42.667s17.067 42.667 42.667 42.667 42.667-17.067 42.667-42.667v0c0-25.6-17.067-42.667-42.667-42.667zM512 320c-21.333 0-42.667 17.067-42.667 38.4-4.267 46.933 25.6 89.6 72.533 106.667 17.067 4.267 29.867 17.067 38.4 34.133s8.533 34.133 0 51.2c-8.533 17.067-21.333 29.867-34.133 38.4-17.067 8.533-34.133 8.533-51.2 0-12.8-4.267-21.333-12.8-29.867-21.333-12.8-17.067-42.667-21.333-59.733-8.533-21.333 17.067-25.6 46.933-12.8 64 17.067 21.333 42.667 38.4 68.267 51.2 81.067 29.867 166.4-8.533 196.267-89.6s-8.533-166.4-89.6-196.267c-8.533-4.267-12.8-12.8-12.8-21.333 0-25.6-17.067-46.933-42.667-46.933 0 0 0 0 0 0z" />
<glyph unicode="&#xe90a;" glyph-name="plus" d="M213.333 384h256v-256c0-23.552 19.115-42.667 42.667-42.667s42.667 19.115 42.667 42.667v256h256c23.552 0 42.667 19.115 42.667 42.667s-19.115 42.667-42.667 42.667h-256v256c0 23.552-19.115 42.667-42.667 42.667s-42.667-19.115-42.667-42.667v-256h-256c-23.552 0-42.667-19.115-42.667-42.667s19.115-42.667 42.667-42.667z" />
<glyph unicode="&#xe90b;" glyph-name="minus" d="M213.333 384h597.333c23.552 0 42.667 19.115 42.667 42.667s-19.115 42.667-42.667 42.667h-597.333c-23.552 0-42.667-19.115-42.667-42.667s19.115-42.667 42.667-42.667z" />
<glyph unicode="&#xe90c;" glyph-name="info-circle" d="M512-0c-234.667 0-426.667 192-426.667 426.667s192 426.667 426.667 426.667c234.667 0 426.667-192 426.667-426.667s-192-426.667-426.667-426.667zM512 768c-187.733 0-341.333-153.6-341.333-341.333s153.6-341.333 341.333-341.333 341.333 153.6 341.333 341.333-153.6 341.333-341.333 341.333zM512 554.667c-25.6 0-42.667 17.067-42.667 42.667s17.067 42.667 42.667 42.667v0c25.6 0 42.667-17.067 42.667-42.667s-17.067-42.667-42.667-42.667zM554.667 213.334h-42.667c-25.6 0-42.667 17.067-42.667 42.667v128c-25.6 0-42.667 17.067-42.667 42.667s17.067 42.667 42.667 42.667h42.667c25.6 0 42.667-17.067 42.667-42.667v-128c25.6 0 42.667-17.067 42.667-42.667s-17.067-42.667-42.667-42.667z" />
<glyph unicode="&#xe90d;" glyph-name="mail" d="M938.667 648.534c0 0 0 0 0 0-4.267 68.267-59.733 119.467-128 119.467h-597.333c-68.267 0-123.733-51.2-128-119.467 0 0 0 0 0 0 0-4.267 0-4.267 0-8.533v-426.667c0-72.533 55.467-128 128-128h597.333c72.533 0 128 55.467 128 128v426.667c0 4.267 0 4.267 0 8.533zM213.333 682.667h597.333c17.067 0 29.867-8.533 38.4-21.333l-337.067-226.133-337.067 226.133c8.533 12.8 21.333 21.333 38.4 21.333zM810.667 170.667h-597.333c-25.6 0-42.667 17.067-42.667 42.667v345.6l315.733-213.333c8.533-4.267 17.067-8.533 25.6-8.533s17.067 4.267 25.6 8.533l315.733 213.333v-345.6c0-25.6-17.067-42.667-42.667-42.667z" />
<glyph unicode="&#xe90e;" glyph-name="send" d="M938.667 814.934c0 4.267 0 8.533-4.267 12.8 0 0 0 4.267 0 4.267 0 4.267-4.267 8.533-8.533 12.8s-8.533 4.267-12.8 8.533c0 0-4.267 0-4.267 0-4.267 0-8.533 0-12.8 4.267 0-4.267 0-4.267 0-4.267-4.267 0-8.533 0-12.8-4.267l-772.267-277.333c-17.067-4.267-25.6-17.067-34.133-34.133s-8.533-34.133 0-51.2c4.267-17.067 17.067-29.867 34.133-38.4l285.867-145.067 140.8-285.867c8.533-12.8 17.067-25.6 34.133-34.133 8.533-4.267 17.067-4.267 25.6-4.267s17.067 0 21.333 4.267c17.067 4.267 29.867 17.067 38.4 38.4l277.333 768c4.267 12.8 4.267 17.067 4.267 25.6 0-4.267 0-4.267 0 0zM729.6 704l-311.467-311.467-230.4 115.2 541.867 196.267zM593.067 102.4l-115.2 230.4 311.467 311.467-196.267-541.867z" />
<glyph unicode="&#xe90f;" glyph-name="map-pin" d="M512 298.667c-93.867 0-170.667 76.8-170.667 170.667s76.8 170.667 170.667 170.667c93.867 0 170.667-76.8 170.667-170.667s-76.8-170.667-170.667-170.667zM512 554.667c-46.933 0-85.333-38.4-85.333-85.333s38.4-85.333 85.333-85.333c46.933 0 85.333 38.4 85.333 85.333s-38.4 85.333-85.333 85.333zM512-21.333c-34.133 0-68.267 12.8-89.6 38.4l-179.2 179.2c-149.333 149.333-149.333 392.533 0 541.867s392.533 149.333 541.867 0c149.333-149.333 149.333-392.533 0-541.867l-179.2-179.2c-25.6-25.6-59.733-38.4-93.867-38.4 0 0 0 0 0 0zM512 768c-76.8 0-153.6-29.867-209.067-85.333-119.467-119.467-119.467-307.2-4.267-426.667l179.2-179.2c17.067-17.067 42.667-17.067 59.733 0l187.733 179.2c115.2 115.2 115.2 307.2 0 422.4-59.733 59.733-136.533 89.6-213.333 89.6z" />
<glyph unicode="&#xe910;" glyph-name="phone" d="M768-0c-366.933 21.333-661.333 315.733-682.667 678.4 0 76.8 55.467 132.267 128 132.267h170.667c17.067 0 34.133-8.533 38.4-25.6l85.333-213.333c8.533-21.333 0-42.667-17.067-51.2l-72.533-42.667c34.133-55.467 85.333-106.667 140.8-140.8l42.667 72.533c12.8 17.067 34.133 25.6 51.2 17.067l213.333-85.333c17.067-8.533 25.6-21.333 25.6-38.4v-170.667c4.267-76.8-51.2-132.267-123.733-132.267zM213.333 725.334c-25.6 0-42.667-17.067-42.667-42.667 21.333-320 277.333-576 601.6-597.333 21.333 0 38.4 21.333 38.4 42.667v140.8l-153.6 59.733-42.667-72.533c-12.8-17.067-34.133-25.6-55.467-17.067-102.4 51.2-183.467 132.267-234.667 234.667-8.533 21.333-4.267 42.667 17.067 55.467l76.8 46.933-64 149.333h-140.8z" />
<glyph unicode="&#xe911;" glyph-name="search" d="M426.667 170.667c-187.733 0-341.333 153.6-341.333 341.333s153.6 341.333 341.333 341.333 341.333-153.6 341.333-341.333-153.6-341.333-341.333-341.333zM426.667 768c-140.8 0-256-115.2-256-256s115.2-256 256-256 256 115.2 256 256-115.2 256-256 256zM896-0c-12.8 0-21.333 4.267-29.867 12.8l-256 256c-17.067 17.067-17.067 42.667 0 59.733s42.667 17.067 59.733 0l256-256c17.067-17.067 17.067-42.667 0-59.733-8.533-8.533-17.067-12.8-29.867-12.8z" />
<glyph unicode="&#xe912;" glyph-name="check" d="M426.667 170.667c-12.8 0-21.333 4.267-29.867 12.8l-213.333 213.333c-17.067 17.067-17.067 42.667 0 59.733s42.667 17.067 59.733 0l183.467-183.467 396.8 396.8c17.067 17.067 42.667 17.067 59.733 0s17.067-42.667 0-59.733l-426.667-426.667c-8.533-8.533-17.067-12.8-29.867-12.8z" />
<glyph unicode="&#xe913;" glyph-name="menu" horiz-adv-x="1603" d="M8.904 929.763h1584.974v-111.304h-1584.974v111.304zM8.904 480.093h1584.974v-111.304h-1584.974v111.304zM8.904 34.876h1584.974v-111.304h-1584.974v111.304z" />
<glyph unicode="&#xe914;" glyph-name="chevron-up" d="M768 256c-12.8 0-21.333 4.267-29.867 12.8l-226.133 226.133-226.133-226.133c-17.067-17.067-42.667-17.067-59.733 0s-17.067 42.667 0 59.733l256 256c17.067 17.067 42.667 17.067 59.733 0l256-256c17.067-17.067 17.067-42.667 0-59.733-8.533-8.533-17.067-12.8-29.867-12.8z" />
<glyph unicode="&#xe915;" glyph-name="chevron-down" d="M512 256c-12.8 0-21.333 4.267-29.867 12.8l-256 256c-17.067 17.067-17.067 42.667 0 59.733s42.667 17.067 59.733 0l226.133-226.133 226.133 226.133c17.067 17.067 42.667 17.067 59.733 0s17.067-42.667 0-59.733l-256-256c-8.533-8.533-17.067-12.8-29.867-12.8z" />
<glyph unicode="&#xe916;" glyph-name="chevron-right" d="M384 128c-12.8 0-21.333 4.267-29.867 12.8-17.067 17.067-17.067 42.667 0 59.733l226.133 226.133-226.133 226.133c-17.067 17.067-17.067 42.667 0 59.733s42.667 17.067 59.733 0l256-256c17.067-17.067 17.067-42.667 0-59.733l-256-256c-8.533-8.533-17.067-12.8-29.867-12.8z" />
<glyph unicode="&#xe917;" glyph-name="chevron-left" d="M640 128c-12.8 0-21.333 4.267-29.867 12.8l-256 256c-17.067 17.067-17.067 42.667 0 59.733l256 256c17.067 17.067 42.667 17.067 59.733 0s17.067-42.667 0-59.733l-226.133-226.133 226.133-226.133c17.067-17.067 17.067-42.667 0-59.733-8.533-8.533-17.067-12.8-29.867-12.8z" />
<glyph unicode="&#xe918;" glyph-name="arrow-right" d="M810.667 384h-597.333c-25.6 0-42.667 17.067-42.667 42.667s17.067 42.667 42.667 42.667h597.333c25.6 0 42.667-17.067 42.667-42.667s-17.067-42.667-42.667-42.667zM554.667 128c-12.8 0-21.333 4.267-29.867 12.8-17.067 17.067-17.067 42.667 0 59.733l256 256c17.067 17.067 42.667 17.067 59.733 0s17.067-42.667 0-59.733l-256-256c-8.533-8.533-17.067-12.8-29.867-12.8zM810.667 384c-12.8 0-21.333 4.267-29.867 12.8l-256 256c-17.067 17.067-17.067 42.667 0 59.733s42.667 17.067 59.733 0l256-256c17.067-17.067 17.067-42.667 0-59.733-8.533-8.533-17.067-12.8-29.867-12.8z" />
<glyph unicode="&#xe919;" glyph-name="arrow-left" d="M810.667 384h-597.333c-25.6 0-42.667 17.067-42.667 42.667s17.067 42.667 42.667 42.667h597.333c25.6 0 42.667-17.067 42.667-42.667s-17.067-42.667-42.667-42.667zM469.333 128c-12.8 0-21.333 4.267-29.867 12.8l-256 256c-17.067 17.067-17.067 42.667 0 59.733s42.667 17.067 59.733 0l256-256c17.067-17.067 17.067-42.667 0-59.733-8.533-8.533-17.067-12.8-29.867-12.8zM213.333 384c-12.8 0-21.333 4.267-29.867 12.8-17.067 17.067-17.067 42.667 0 59.733l256 256c17.067 17.067 42.667 17.067 59.733 0s17.067-42.667 0-59.733l-256-256c-8.533-8.533-17.067-12.8-29.867-12.8z" />
<glyph unicode="&#xe91a;" glyph-name="close" d="M256 128c-12.8 0-21.333 4.267-29.867 12.8-17.067 17.067-17.067 42.667 0 59.733l512 512c17.067 17.067 42.667 17.067 59.733 0s17.067-42.667 0-59.733l-512-512c-8.533-8.533-17.067-12.8-29.867-12.8zM768 128c-12.8 0-21.333 4.267-29.867 12.8l-512 512c-17.067 17.067-17.067 42.667 0 59.733s42.667 17.067 59.733 0l512-512c17.067-17.067 17.067-42.667 0-59.733-8.533-8.533-17.067-12.8-29.867-12.8z" />
<glyph unicode="&#xe91b;" glyph-name="home" horiz-adv-x="1170" d="M468.114-85.333v361.412h234.057v-361.412h292.571v481.882h175.543l-585.143 542.118-585.143-542.118h175.543v-481.882z" />
<glyph unicode="&#xe91c;" glyph-name="search-menu" horiz-adv-x="2137" d="M966.122-80.881l-222.609 204.8c-71.235-57.878-164.73-93.496-258.226-97.948-115.757-4.452-227.061 35.617-311.652 115.757-173.635 164.73-186.991 440.765-22.261 618.852 80.139 84.591 186.991 133.565 302.748 138.017s227.061-35.617 311.652-115.757c164.73-151.374 182.539-405.148 53.426-583.235l218.157-204.8-71.235-75.687zM471.93 796.197c-4.452 0-8.904 0-13.357 0-89.043-4.452-169.183-40.070-227.061-102.4-124.661-133.565-115.757-338.365 13.357-463.026 62.33-57.878 146.922-89.043 231.513-89.043 89.043 4.452 169.183 40.070 227.061 102.4 124.661 133.565 115.757 338.365-13.357 463.026-57.878 57.878-138.017 89.043-218.157 89.043zM2137.043 61.589h-592.139v111.304h592.139v-111.304zM2128.139 377.693h-988.383v111.304h988.383v-111.304zM2137.043 693.797h-997.287v111.304h997.287v-111.304z" />
<glyph unicode="&#xe91d;" glyph-name="clock" d="M512-0c-234.667 0-426.667 192-426.667 426.667s192 426.667 426.667 426.667c234.667 0 426.667-192 426.667-426.667s-192-426.667-426.667-426.667zM512 768c-187.733 0-341.333-153.6-341.333-341.333s153.6-341.333 341.333-341.333 341.333 153.6 341.333 341.333-153.6 341.333-341.333 341.333zM640 256c-12.8 0-21.333 4.267-29.867 12.8l-128 128c-8.533 8.533-12.8 17.067-12.8 29.867v213.333c0 25.6 17.067 42.667 42.667 42.667s42.667-17.067 42.667-42.667v-196.267l115.2-115.2c17.067-17.067 17.067-42.667 0-59.733-8.533-8.533-17.067-12.8-29.867-12.8z" />
<glyph unicode="&#xe91e;" glyph-name="map" d="M768 725.334c-25.6 0-42.667-21.333-42.667-42.667s17.067-42.667 42.667-42.667 42.667 17.067 42.667 42.667v0c0 25.6-17.067 42.667-42.667 42.667zM955.733 785.067c-25.6 51.2-72.533 85.333-128 102.4s-110.933 8.533-162.133-17.067c-102.4-55.467-140.8-187.733-85.333-290.133 0 0 0-4.267 4.267-4.267l149.333-213.333c8.533-12.8 21.333-17.067 34.133-17.067s25.6 8.533 34.133 17.067l149.333 213.333c0 0 0 4.267 4.267 4.267 34.133 59.733 34.133 136.533 0 204.8zM878.933 618.667l-110.933-162.133-110.933 162.133c-34.133 59.733-8.533 136.533 51.2 170.667 25.6 21.333 64 21.333 93.867 12.8 34.133-8.533 59.733-29.867 76.8-59.733 21.333-38.4 21.333-85.333 0-123.733zM896 341.334c-25.6 0-42.667-17.067-42.667-42.667v-59.733l-170.667-85.333v145.067c0 25.6-17.067 42.667-42.667 42.667s-42.667-17.067-42.667-42.667v-145.067l-170.667 85.333v460.8h4.267c21.333-8.533 46.933 0 55.467 17.067 8.533 21.333 0 46.933-17.067 55.467l-68.267 34.133c0 0 0 0 0 0-4.267 4.267-8.533 4.267-17.067 4.267s-12.8 0-17.067-4.267c0 0 0 0 0 0l-256-128c-17.067-8.533-25.6-21.333-25.6-38.4v-554.667c0-12.8 8.533-29.867 21.333-38.4 4.267-4.267 12.8-4.267 21.333-4.267s12.8 0 17.067 4.267l238.933 119.467 238.933-119.467c0 0 0 0 0 0 4.267-4.267 8.533-4.267 17.067-4.267s12.8 0 17.067 4.267c0 0 0 0 0 0l256 128c12.8 8.533 25.6 21.333 25.6 38.4v85.333c0 25.6-17.067 42.667-42.667 42.667zM170.667 614.4l170.667 85.333v-460.8l-170.667-85.333v460.8z" />
<glyph unicode="&#xea9d;" glyph-name="youtube1" d="M1013.8 631.467c0 0-10 70.6-40.8 101.6-39 40.8-82.6 41-102.6 43.4-143.2 10.4-358.2 10.4-358.2 10.4h-0.4c0 0-215 0-358.2-10.4-20-2.4-63.6-2.6-102.6-43.4-30.8-31-40.6-101.6-40.6-101.6s-10.2-82.8-10.2-165.8v-77.6c0-82.8 10.2-165.8 10.2-165.8s10-70.6 40.6-101.6c39-40.8 90.2-39.4 113-43.8 82-7.8 348.2-10.2 348.2-10.2s215.2 0.4 358.4 10.6c20 2.4 63.6 2.6 102.6 43.4 30.8 31 40.8 101.6 40.8 101.6s10.2 82.8 10.2 165.8v77.6c-0.2 82.8-10.4 165.8-10.4 165.8zM406.2 293.867v287.8l276.6-144.4-276.6-143.4z" />
<glyph unicode="&#xea9e;" glyph-name="youtube21" horiz-adv-x="2569" d="M344.012 769.268c0.209 0.865 0.344 1.479 0.388 1.8l1.042 7.559-47.349 0.267c-42.779 0.242-55.87-0.007-57.047-1.084-0.565-0.516-15.333-56.633-41.655-158.273-12.556-48.484-23.124-87.206-23.487-86.051s-15.391 56.498-33.397 122.98c-18.006 66.482-33.104 121.243-33.55 121.692-0.623 0.623-57.98 0.9-104.417 0.502-6.735-0.056-10.477 13.11 60.021-211.133 9.759-31.041 24.371-74.997 32.469-97.679 9.333-26.141 15.989-46.323 20.534-63.173 8.038-32.067 8.319-52.163 6.565-75.625-2.026-27.101-2.321-218.438-0.342-221.638 1.512-2.449 91.223-3.589 99.712-1.268 1.358 0.372 2.265 1.691 2.87 8.928 2.119 6.219 2.286 30.969 2.286 133.744v131.281l5.742 18.112c3.756 11.849 13.201 42.995 20.989 69.22 7.789 26.222 17.21 57.619 20.938 69.771 33.834 110.319 66.14 218.831 66.994 225.011l0.693 5.056zM846.122 610.016l-0.021-6.838-1.065-0.014-0.595-188.993-0.577-183.227-14.666-14.929c-16.424-16.719-29.585-23.101-41.488-20.113-12.963 3.254-12.64-1.8-13.722 214.768l-0.998 199.347h-94.316v-6.851h-1.086v-216.289c0-231.737-0.007-231.599 11.752-254.875 9.366-18.536 23.010-27.559 46.391-30.671h0.002c30.79-4.1 64.001 9.849 94.77 39.809l13.373 13.022v-22.445c0-19.396 0.554-22.601 4.070-23.58 5.756-1.605 77.173-1.707 84.89-0.126l6.396 1.314v6.628l1.086 0.223v495.098l-94.195-1.258zM606.892 512.337c-8.935 38.341-25.68 64.115-53.233 81.939-43.281 27.999-92.718 30.957-138.586 8.291-33.425-16.515-54.951-43.914-66.071-84.083-1.326-4.786-2.298-8.812-3.033-14.815-2.83-14.184-3.163-35.351-3.889-133.951-1.121-151.928 0.616-170.003 19.643-204.51 18.664-33.848 57.403-58.661 99.572-63.782 12.696-1.54 38.43 0.858 53.23 4.961 33.632 9.326 65.864 35.906 80.118 66.078 6.158 13.033 9.875 22.096 12.115 38.651 4.175 22.617 4.47 59.175 4.47 152.375-0.002 118.875-0.379 131.862-4.337 148.847zM499.34 202.664c-7.907-6.028-21.734-8.649-32.983-6.249-8.656 1.847-20.338 15.419-23.934 27.801-4.479 15.436-4.823 229.985-0.954 272.059 6.379 21.054 24.19 32.050 43.635 26.813 15.157-4.082 22.915-13.575 27.336-33.457 3.282-14.754 3.67-33.129 2.972-141.26-0.46-71.701-0.716-106.742-3.058-125.553-2.382-11.87-6.319-15.047-13.015-20.154zM2300.389 404.53h45.57l-0.726 41.281c-0.705 37.869-1.263 42.2-6.324 52.472-7.982 16.21-19.759 23.401-38.446 23.401-22.448 0-36.678-10.849-43.388-33.141-2.858-9.486-5.863-74.685-3.707-80.308 1.205-3.144 7.724-3.705 47.021-3.705zM1995.795 498.43c-6.077 12.247-17.385 18.278-30.525 17.806-10.221-0.365-21.561-4.677-32.488-13.010l-8.14-6.177v-296.598l8.14-6.177c18.429-14.052 38.674-17.031 52.619-7.703 5.519 3.691 9.117 8.779 11.919 16.861 3.647 10.524 3.965 24.003 3.489 148.772-0.495 130.043-0.781 137.702-5.014 146.226zM2560.878 632.034c-9.080 108.842-16.303 144.165-38.751 189.544-29.729 60.101-72.692 91.788-133.876 98.747-47.309 5.379-225.315 12.97-390.044 16.631-285.188 6.338-754.057-5.858-813.939-21.173-27.673-7.077-48.426-19.11-70.022-40.604-37.844-37.662-60.391-91.679-69.452-166.396-20.692-170.606-21.134-376.727-1.188-553.515 8.577-76.041 26.243-125.443 59.41-166.159 20.694-25.406 56.352-46.998 88.26-53.442 22.385-4.523 134.42-10.798 297.605-16.668 24.306-0.874 88.667-2.379 143.030-3.344 113.301-2.012 321.627-0.821 440.719 2.519 80.127 2.249 226.201 8.172 253.5 10.282 7.677 0.593 25.469 1.728 39.537 2.523 47.277 2.67 77.353 12.568 105.596 34.76 36.553 28.718 64.857 81.795 76.815 144.037 11.314 58.894 18.887 163.773 20.422 282.851 1.284 99.491-0.426 153.175-7.621 239.409zM1425.273 671.475l-52.982-0.654-2.326-565.143-45.932-0.581c-35.525-0.488-46.307 0.044-47.167 2.326-0.616 1.626-1.356 129.020-1.672 283.153l-0.581 280.246-103.493 1.307v88.304l305.829-1.235 1.307-87.069-52.982-0.654zM1750.216 347.55v-243.035h-83.725v25.583c0 19.247-0.735 25.583-2.979 25.583-1.64 0-9.226-6.344-16.861-14.098-16.557-16.817-36.171-30.367-52.91-36.63-34.662-12.968-67.589-5.4-81.618 18.75-12.838 22.11-13.082 27.052-13.082 256.335v210.547h83.653l0.654-198.265c0.623-194.821 0.714-198.393 5.377-206.333 6.182-10.521 15.608-13.347 30.597-9.231 8.817 2.423 14.836 6.707 29.143 20.931l18.024 17.952v374.946h83.725v-243.035zM2076.757 139.257c-7.372-16.424-23.806-32.509-37.283-36.485-35.167-10.382-63.375-1.923-95.935 28.708-10.103 9.505-19.51 17.224-20.931 17.224-1.712 0-2.616-7.449-2.616-22.094v-22.094h-83.725v655.845h83.725v-106.982c0-58.84 0.786-106.982 1.744-106.982s9.789 7.807 19.624 17.298c22.629 21.841 41.548 31.399 65.557 33.213 42.811 3.24 68.327-18.794 80.018-69.117 3.647-15.696 3.998-33.625 3.998-179.078-0.002-177.178-0.021-177.918-14.175-209.457zM2430.99 236.499c-0.744-18.226-2.954-39.137-4.942-46.514-11.642-43.167-42.635-73.731-87.432-86.269-60.315-16.878-126.704 10.777-153.205 63.812-14.875 29.769-15.408 35.706-15.408 181.185 0 118.617 0.419 133.171 4.214 149.354 10.747 45.788 37.392 75.422 82.49 91.865 13.068 4.765 26.708 7.207 40.337 7.486 48.672 0.998 96.984-25.18 117.229-67.808 13.659-28.76 15.35-41.060 16.717-122.099l1.235-72.678-178.497-1.235-0.654-48.84c-0.93-68.901 3.716-90.088 22.313-102.621 15.645-10.54 39.679-9.745 52.765 1.744 12.263 10.768 15.726 22.336 16.933 56.107l1.091 29.653h86.195l-1.381-33.143z" />
<glyph unicode="&#xea9f;" glyph-name="youtube" d="M1013.8 631.467c0 0-10 70.6-40.8 101.6-39 40.8-82.6 41-102.6 43.4-143.2 10.4-358.2 10.4-358.2 10.4h-0.4c0 0-215 0-358.2-10.4-20-2.4-63.6-2.6-102.6-43.4-30.8-31-40.6-101.6-40.6-101.6s-10.2-82.8-10.2-165.8v-77.6c0-82.8 10.2-165.8 10.2-165.8s10-70.6 40.6-101.6c39-40.8 90.2-39.4 113-43.8 82-7.8 348.2-10.2 348.2-10.2s215.2 0.4 358.4 10.6c20 2.4 63.6 2.6 102.6 43.4 30.8 31 40.8 101.6 40.8 101.6s10.2 82.8 10.2 165.8v77.6c-0.2 82.8-10.4 165.8-10.4 165.8zM406.2 293.867v287.8l276.6-144.4-276.6-143.4z" />
<glyph unicode="&#xeaa0;" glyph-name="youtube2" horiz-adv-x="2569" d="M344.012 769.268c0.209 0.865 0.344 1.479 0.388 1.8l1.042 7.559-47.349 0.267c-42.779 0.242-55.87-0.007-57.047-1.084-0.565-0.516-15.333-56.633-41.655-158.273-12.556-48.484-23.124-87.206-23.487-86.051s-15.391 56.498-33.397 122.98c-18.006 66.482-33.104 121.243-33.55 121.692-0.623 0.623-57.98 0.9-104.417 0.502-6.735-0.056-10.477 13.11 60.021-211.133 9.759-31.041 24.371-74.997 32.469-97.679 9.333-26.141 15.989-46.323 20.534-63.173 8.038-32.067 8.319-52.163 6.565-75.625-2.026-27.101-2.321-218.438-0.342-221.638 1.512-2.449 91.223-3.589 99.712-1.268 1.358 0.372 2.265 1.691 2.87 8.928 2.119 6.219 2.286 30.969 2.286 133.744v131.281l5.742 18.112c3.756 11.849 13.201 42.995 20.989 69.22 7.789 26.222 17.21 57.619 20.938 69.771 33.834 110.319 66.14 218.831 66.994 225.011l0.693 5.056zM846.122 610.016l-0.021-6.838-1.065-0.014-0.595-188.993-0.577-183.227-14.666-14.929c-16.424-16.719-29.585-23.101-41.488-20.113-12.963 3.254-12.64-1.8-13.722 214.768l-0.998 199.347h-94.316v-6.851h-1.086v-216.289c0-231.737-0.007-231.599 11.752-254.875 9.366-18.536 23.010-27.559 46.391-30.671h0.002c30.79-4.1 64.001 9.849 94.77 39.809l13.373 13.022v-22.445c0-19.396 0.554-22.601 4.070-23.58 5.756-1.605 77.173-1.707 84.89-0.126l6.396 1.314v6.628l1.086 0.223v495.098l-94.195-1.258zM606.892 512.337c-8.935 38.341-25.68 64.115-53.233 81.939-43.281 27.999-92.718 30.957-138.586 8.291-33.425-16.515-54.951-43.914-66.071-84.083-1.326-4.786-2.298-8.812-3.033-14.815-2.83-14.184-3.163-35.351-3.889-133.951-1.121-151.928 0.616-170.003 19.643-204.51 18.664-33.848 57.403-58.661 99.572-63.782 12.696-1.54 38.43 0.858 53.23 4.961 33.632 9.326 65.864 35.906 80.118 66.078 6.158 13.033 9.875 22.096 12.115 38.651 4.175 22.617 4.47 59.175 4.47 152.375-0.002 118.875-0.379 131.862-4.337 148.847zM499.34 202.664c-7.907-6.028-21.734-8.649-32.983-6.249-8.656 1.847-20.338 15.419-23.934 27.801-4.479 15.436-4.823 229.985-0.954 272.059 6.379 21.054 24.19 32.050 43.635 26.813 15.157-4.082 22.915-13.575 27.336-33.457 3.282-14.754 3.67-33.129 2.972-141.26-0.46-71.701-0.716-106.742-3.058-125.553-2.382-11.87-6.319-15.047-13.015-20.154zM2300.389 404.53h45.57l-0.726 41.281c-0.705 37.869-1.263 42.2-6.324 52.472-7.982 16.21-19.759 23.401-38.446 23.401-22.448 0-36.678-10.849-43.388-33.141-2.858-9.486-5.863-74.685-3.707-80.308 1.205-3.144 7.724-3.705 47.021-3.705zM1995.795 498.43c-6.077 12.247-17.385 18.278-30.525 17.806-10.221-0.365-21.561-4.677-32.488-13.010l-8.14-6.177v-296.598l8.14-6.177c18.429-14.052 38.674-17.031 52.619-7.703 5.519 3.691 9.117 8.779 11.919 16.861 3.647 10.524 3.965 24.003 3.489 148.772-0.495 130.043-0.781 137.702-5.014 146.226zM2560.878 632.034c-9.080 108.842-16.303 144.165-38.751 189.544-29.729 60.101-72.692 91.788-133.876 98.747-47.309 5.379-225.315 12.97-390.044 16.631-285.188 6.338-754.057-5.858-813.939-21.173-27.673-7.077-48.426-19.11-70.022-40.604-37.844-37.662-60.391-91.679-69.452-166.396-20.692-170.606-21.134-376.727-1.188-553.515 8.577-76.041 26.243-125.443 59.41-166.159 20.694-25.406 56.352-46.998 88.26-53.442 22.385-4.523 134.42-10.798 297.605-16.668 24.306-0.874 88.667-2.379 143.030-3.344 113.301-2.012 321.627-0.821 440.719 2.519 80.127 2.249 226.201 8.172 253.5 10.282 7.677 0.593 25.469 1.728 39.537 2.523 47.277 2.67 77.353 12.568 105.596 34.76 36.553 28.718 64.857 81.795 76.815 144.037 11.314 58.894 18.887 163.773 20.422 282.851 1.284 99.491-0.426 153.175-7.621 239.409zM1425.273 671.475l-52.982-0.654-2.326-565.143-45.932-0.581c-35.525-0.488-46.307 0.044-47.167 2.326-0.616 1.626-1.356 129.020-1.672 283.153l-0.581 280.246-103.493 1.307v88.304l305.829-1.235 1.307-87.069-52.982-0.654zM1750.216 347.55v-243.035h-83.725v25.583c0 19.247-0.735 25.583-2.979 25.583-1.64 0-9.226-6.344-16.861-14.098-16.557-16.817-36.171-30.367-52.91-36.63-34.662-12.968-67.589-5.4-81.618 18.75-12.838 22.11-13.082 27.052-13.082 256.335v210.547h83.653l0.654-198.265c0.623-194.821 0.714-198.393 5.377-206.333 6.182-10.521 15.608-13.347 30.597-9.231 8.817 2.423 14.836 6.707 29.143 20.931l18.024 17.952v374.946h83.725v-243.035zM2076.757 139.257c-7.372-16.424-23.806-32.509-37.283-36.485-35.167-10.382-63.375-1.923-95.935 28.708-10.103 9.505-19.51 17.224-20.931 17.224-1.712 0-2.616-7.449-2.616-22.094v-22.094h-83.725v655.845h83.725v-106.982c0-58.84 0.786-106.982 1.744-106.982s9.789 7.807 19.624 17.298c22.629 21.841 41.548 31.399 65.557 33.213 42.811 3.24 68.327-18.794 80.018-69.117 3.647-15.696 3.998-33.625 3.998-179.078-0.002-177.178-0.021-177.918-14.175-209.457zM2430.99 236.499c-0.744-18.226-2.954-39.137-4.942-46.514-11.642-43.167-42.635-73.731-87.432-86.269-60.315-16.878-126.704 10.777-153.205 63.812-14.875 29.769-15.408 35.706-15.408 181.185 0 118.617 0.419 133.171 4.214 149.354 10.747 45.788 37.392 75.422 82.49 91.865 13.068 4.765 26.708 7.207 40.337 7.486 48.672 0.998 96.984-25.18 117.229-67.808 13.659-28.76 15.35-41.060 16.717-122.099l1.235-72.678-178.497-1.235-0.654-48.84c-0.93-68.901 3.716-90.088 22.313-102.621 15.645-10.54 39.679-9.745 52.765 1.744 12.263 10.768 15.726 22.336 16.933 56.107l1.091 29.653h86.195l-1.381-33.143z" />
</font>
</defs>
</svg>
